<?xml version="1.0" standalone="no"?>
<!DOCTYPE svg PUBLIC "-//W3C//DTD SVG 1.1//EN" "http://www.w3.org/Graphics/SVG/1.1/DTD/svg11.dtd" >
<svg xmlns="http://www.w3.org/2000/svg">
<metadata>Generated by IcoMoon</metadata>
<defs>
<font id="icomoon" horiz-adv-x="1024">
<font-face units-per-em="1024" ascent="960" descent="-64" />
<missing-glyph horiz-adv-x="1024" />
<glyph unicode="&#x20;" horiz-adv-x="512" d="" />
<glyph unicode="&#xe900;" glyph-name="arrow-down" d="M29.992 725.208c39.99 39.99 104.826 39.99 144.816 0l337.192-337.193 337.192 337.193c39.99 39.99 104.826 39.99 144.816 0 39.986-39.99 39.986-104.826 0-144.816l-409.6-409.6c-39.99-39.989-104.826-39.989-144.816 0l-409.6 409.6c-39.99 39.99-39.99 104.826 0 144.816z" />
<glyph unicode="&#xe901;" glyph-name="arrow-right" d="M234.792-34.008c-39.99 39.99-39.99 104.826 0 144.816l337.193 337.192-337.193 337.192c-39.99 39.99-39.99 104.826 0 144.816s104.826 39.99 144.816 0l409.6-409.6c39.989-39.99 39.989-104.826 0-144.816l-409.6-409.6c-39.99-39.986-104.826-39.986-144.816 0z" />
<glyph unicode="&#xe902;" glyph-name="delete" d="M90.353 719.059c0 16.633 13.484 30.118 30.118 30.118h813.176c16.631 0 30.118-13.484 30.118-30.118s-13.487-30.118-30.118-30.118h-813.176c-16.633 0-30.118 13.484-30.118 30.118zM436.706 869.647c-15.976 0-31.296-6.346-42.593-17.642s-17.642-26.617-17.642-42.593v-90.353c0-16.633-13.484-30.118-30.118-30.118s-30.118 13.484-30.118 30.118v90.353c0 31.951 12.692 62.593 35.285 85.185s53.235 35.285 85.185 35.285h180.706c31.951 0 62.59-12.692 85.185-35.285s35.286-53.235 35.286-85.185v-90.353c0-16.633-13.487-30.118-30.118-30.118s-30.118 13.484-30.118 30.118v90.353c0 15.976-6.349 31.296-17.642 42.593-11.297 11.296-26.617 17.642-42.593 17.642h-180.706zM210.824 749.176c16.633 0 30.118-13.484 30.118-30.118v-632.471c0-15.974 6.346-31.298 17.642-42.592s26.617-17.643 42.593-17.643h451.765c15.974 0 31.298 6.349 42.592 17.643s17.643 26.618 17.643 42.592v632.471c0 16.633 13.487 30.118 30.118 30.118s30.118-13.484 30.118-30.118v-632.471c0-31.949-12.692-62.59-35.286-85.185s-53.236-35.286-85.185-35.286h-451.765c-31.951 0-62.593 12.692-85.185 35.286s-35.285 53.236-35.285 85.185v632.471c0 16.633 13.484 30.118 30.118 30.118zM436.706 523.294c16.633 0 30.118-13.484 30.118-30.118v-271.059c0-16.631-13.484-30.118-30.118-30.118s-30.118 13.487-30.118 30.118v271.059c0 16.633 13.484 30.118 30.118 30.118zM617.412 523.294c16.633 0 30.118-13.484 30.118-30.118v-271.059c0-16.631-13.484-30.118-30.118-30.118s-30.118 13.487-30.118 30.118v271.059c0 16.633 13.484 30.118 30.118 30.118z" />
<glyph unicode="&#xe903;" glyph-name="edit" d="M68.152 836.973c23.147 23.148 54.541 36.152 87.277 36.152h320c17.673 0 32-14.327 32-32s-14.327-32-32-32h-320c-15.761 0-30.877-6.261-42.022-17.406s-17.406-26.261-17.406-42.022v-640.001c0-15.763 6.261-30.88 17.406-42.022s26.261-17.408 42.022-17.408h640.002c15.757 0 30.874 6.266 42.022 17.408 11.142 11.142 17.402 26.259 17.402 42.022v320.001c0 17.673 14.33 32 32 32 17.677 0 32-14.327 32-32v-320.001c0-32.736-12.998-64.128-36.147-87.277s-54.541-36.154-87.277-36.154h-640.002c-32.735 0-64.13 13.005-87.277 36.154s-36.152 54.541-36.152 87.277v640.001c0 32.735 13.004 64.13 36.152 87.277zM851.066 864c-15.558 0-30.477-6.179-41.472-17.178l-399.685-399.684-27.647-110.588 110.587 27.647 399.683 399.684c11.002 10.998 17.178 25.916 17.178 41.47s-6.176 30.472-17.178 41.47c-10.995 10.998-25.914 17.178-41.466 17.178zM764.339 892.077c23.002 23.001 54.195 35.923 86.726 35.923 32.525 0 63.718-12.922 86.72-35.923s35.923-54.197 35.923-86.725c0-32.528-12.922-63.724-35.923-86.725l-405.949-405.949c-4.101-4.102-9.24-7.014-14.866-8.422l-170.927-42.726c-10.904-2.726-22.44 0.467-30.388 8.416s-11.143 19.482-8.417 30.387l42.732 170.927c1.407 5.627 4.316 10.765 8.417 14.867l405.953 405.951z" />
<glyph unicode="&#xe904;" glyph-name="favourite" d="M512 864l138.432-273.834 309.568-44.181-224-213.030 52.864-300.955-276.864 142.163-276.864-142.163 52.864 300.955-224 213.030 309.568 44.181 138.432 273.834zM512.001 912c18.105 0 34.669-10.187 42.838-26.344l127.145-251.506 284.8-40.646c18.214-2.6 33.338-15.383 38.938-32.909s0.691-36.712-12.64-49.391l-205.35-195.293 48.41-275.603c3.155-17.952-4.128-36.134-18.797-46.944-14.669-10.816-34.195-12.384-50.406-4.064l-254.936 130.906-254.938-130.906c-16.21-8.32-35.735-6.752-50.404 4.064-14.669 10.81-21.951 28.992-18.798 46.944l48.412 275.603-205.35 195.293c-13.333 12.68-18.244 31.865-12.644 49.391s20.726 30.31 38.941 32.909l284.8 40.646 127.144 251.506c8.168 16.157 24.733 26.344 42.837 26.344zM512.001 757.608l-95.594-189.097c-7.074-13.992-20.535-23.648-36.056-25.863l-211.456-30.179 152.185-144.732c11.649-11.078 16.979-27.253 14.197-43.087l-36.156-205.834 190.954 98.048c13.763 7.072 30.089 7.072 43.852 0l190.956-98.048-36.16 205.834c-2.778 15.834 2.554 32.008 14.202 43.087l152.186 144.732-211.456 30.179c-15.524 2.215-28.985 11.871-36.058 25.863l-95.595 189.097z" />
<glyph unicode="&#xe905;" glyph-name="home" d="M481.638 933.178c17.669 14.43 43.054 14.43 60.723 0l384-313.6c11.162-9.116 17.638-22.765 17.638-37.178v-492.8c0-35.757-13.504-70.496-38.234-96.461-24.806-26.042-58.963-41.139-95.098-41.139h-597.336c-36.139 0-70.294 15.098-95.098 41.139-24.728 25.965-38.235 60.704-38.235 96.461v492.8c0 14.412 6.476 28.061 17.638 37.178l384 313.6zM176 559.627v-470.027c0-11.77 4.474-22.611 11.752-30.253 7.202-7.565 16.456-11.347 25.581-11.347h597.336c9.12 0 18.374 3.782 25.581 11.347 7.277 7.642 11.75 18.483 11.75 30.253v470.027l-336 274.4-336-274.4zM336 448c0 26.509 21.491 48 48 48h256c26.509 0 48-21.491 48-48v-448c0-26.509-21.491-48-48-48s-48 21.491-48 48v400h-160v-400c0-26.509-21.491-48-48-48s-48 21.491-48 48v448z" />
<glyph unicode="&#xe906;" glyph-name="loading" d="M512 960c35.346 0 64-28.654 64-64v-192c0-35.346-28.654-64-64-64s-64 28.654-64 64v192c0 35.346 28.654 64 64 64zM512 256c35.346 0 64-28.653 64-64v-192c0-35.347-28.654-64-64-64s-64 28.653-64 64v192c0 35.347 28.654 64 64 64zM146.745 813.255c24.994 24.993 65.516 24.993 90.51 0l128-128c24.993-24.994 24.993-65.516 0-90.51s-65.516-24.993-90.51 0l-128 128c-24.993 24.994-24.993 65.516 0 90.51zM658.746 301.254c24.992 24.994 65.517 24.994 90.509 0l128-128c24.992-24.992 24.992-65.517 0-90.509s-65.517-24.992-90.509 0l-128 128c-24.994 24.992-24.994 65.517 0 90.509zM0 448c0 35.346 28.654 64 64 64h192c35.346 0 64-28.654 64-64s-28.654-64-64-64h-192c-35.346 0-64 28.654-64 64zM704 448c0 35.346 28.653 64 64 64h192c35.347 0 64-28.654 64-64s-28.653-64-64-64h-192c-35.347 0-64 28.654-64 64zM365.255 301.254c24.993-24.992 24.993-65.517 0-90.509l-128-128c-24.994-24.992-65.516-24.992-90.51 0s-24.993 65.517 0 90.509l128 128c24.994 24.994 65.516 24.994 90.51 0zM877.254 813.255c24.992-24.994 24.992-65.516 0-90.51l-128-128c-24.992-24.993-65.517-24.993-90.509 0-24.994 24.994-24.994 65.516 0 90.51l128 128c24.992 24.993 65.517 24.993 90.509 0z" />
<glyph unicode="&#xe907;" glyph-name="download" d="M170.667 476.444c15.709 0 28.444-12.735 28.444-28.444v-341.333c0-15.087 5.994-29.559 16.662-40.226s25.139-16.663 40.227-16.663h512c15.087 0 29.559 5.996 40.226 16.663s16.663 25.139 16.663 40.226v341.333c0 15.709 12.737 28.444 28.444 28.444s28.444-12.735 28.444-28.444v-341.333c0-30.174-11.986-59.113-33.326-80.452s-50.278-33.326-80.452-33.326h-512c-30.176 0-59.116 11.986-80.453 33.326s-33.325 50.278-33.325 80.452v341.333c0 15.709 12.735 28.444 28.444 28.444zM532.113 299.884c-11.108-11.105-29.118-11.105-40.226 0l-170.667 170.67c-11.109 11.108-11.109 29.118 0 40.226s29.118 11.109 40.226 0l150.554-150.554 150.551 150.554c11.11 11.109 29.121 11.109 40.232 0 11.105-11.108 11.105-29.118 0-40.226l-170.67-170.67zM512 291.556c-15.709 0-28.444 12.737-28.444 28.444v554.667c0 15.709 12.735 28.444 28.444 28.444s28.444-12.735 28.444-28.444v-554.667c0-15.707-12.735-28.444-28.444-28.444z" />
<glyph unicode="&#xe908;" glyph-name="vocabulary" d="M47.904 912.096c30.672 30.673 72.274 47.904 115.652 47.904h696.886c43.379 0 84.979-17.232 115.654-47.904s47.904-72.274 47.904-115.652v-696.886c0-43.379-17.229-84.979-47.904-115.654s-72.275-47.904-115.654-47.904h-696.886c-43.378 0-84.979 17.229-115.652 47.904s-47.904 72.275-47.904 115.654v696.886c0 43.378 17.232 84.979 47.904 115.652zM163.556 832c-9.43 0-18.474-3.746-25.142-10.414s-10.414-15.711-10.414-25.142v-696.886c0-9.434 3.746-18.477 10.414-25.146s15.711-10.413 25.142-10.413h284.444v768h-284.444zM576 832v-768h284.442c9.434 0 18.477 3.744 25.146 10.413s10.413 15.712 10.413 25.146v696.886c0 9.43-3.744 18.474-10.413 25.142s-15.712 10.414-25.146 10.414h-284.442z" />
<glyph unicode="&#xe909;" glyph-name="add" d="M512 960c35.346 0 64-28.654 64-64v-896c0-35.347-28.654-64-64-64s-64 28.653-64 64v896c0 35.346 28.654 64 64 64zM0 448c0 35.346 28.654 64 64 64h896c35.347 0 64-28.654 64-64s-28.653-64-64-64h-896c-35.346 0-64 28.654-64 64z" />
<glyph unicode="&#xe90a;" glyph-name="clock" d="M512 832c-212.077 0-384-171.923-384-384s171.923-384 384-384c212.077 0 384 171.923 384 384s-171.923 384-384 384zM0 448c0 282.77 229.23 512 512 512s512-229.23 512-512c0-282.771-229.229-512-512-512s-512 229.229-512 512zM512 768c35.346 0 64-28.654 64-64v-197.333l152.614-63.59c32.627-13.595 48.058-51.065 34.464-83.693s-51.066-48.056-83.693-34.461l-192.001 80c-23.849 9.937-39.384 33.24-39.384 59.077v240c0 35.346 28.654 64 64 64z" />
<glyph unicode="&#xe90b;" glyph-name="filter" horiz-adv-x="1252" d="M227.556 391.111c31.419 0 56.889-25.469 56.889-56.889v-341.333c0-31.42-25.47-56.889-56.889-56.889s-56.889 25.469-56.889 56.889v341.333c0 31.42 25.47 56.889 56.889 56.889zM227.556 960c31.419 0 56.889-25.47 56.889-56.889v-341.333c0-31.419-25.47-56.889-56.889-56.889s-56.889 25.47-56.889 56.889v341.333c0 31.419 25.47 56.889 56.889 56.889zM625.778 504.889c31.42 0 56.889-25.47 56.889-56.889v-455.111c0-31.42-25.469-56.889-56.889-56.889s-56.889 25.469-56.889 56.889v455.111c0 31.419 25.469 56.889 56.889 56.889zM625.778 960c31.42 0 56.889-25.47 56.889-56.889v-227.556c0-31.419-25.469-56.889-56.889-56.889s-56.889 25.47-56.889 56.889v227.556c0 31.419 25.469 56.889 56.889 56.889zM1024 277.333c31.42 0 56.889-25.469 56.889-56.889v-227.556c0-31.42-25.469-56.889-56.889-56.889s-56.889 25.469-56.889 56.889v227.556c0 31.42 25.469 56.889 56.889 56.889zM1024 960c31.42 0 56.889-25.47 56.889-56.889v-455.111c0-31.419-25.469-56.889-56.889-56.889s-56.889 25.47-56.889 56.889v455.111c0 31.419 25.469 56.889 56.889 56.889zM0 334.222c0 31.42 25.47 56.889 56.889 56.889h341.333c31.419 0 56.889-25.469 56.889-56.889s-25.47-56.889-56.889-56.889h-341.333c-31.419 0-56.889 25.469-56.889 56.889zM398.222 675.556c0 31.419 25.47 56.889 56.889 56.889h341.333c31.42 0 56.889-25.47 56.889-56.889s-25.469-56.889-56.889-56.889h-341.333c-31.419 0-56.889 25.47-56.889 56.889zM796.444 220.444c0 31.42 25.469 56.889 56.889 56.889h341.333c31.42 0 56.889-25.469 56.889-56.889s-25.469-56.889-56.889-56.889h-341.333c-31.42 0-56.889 25.469-56.889 56.889z" />
<glyph unicode="&#xe90c;" glyph-name="search" d="M463.238 850.286c-195.245 0-353.524-158.278-353.524-353.524s158.278-353.526 353.524-353.526c195.246 0 353.526 158.28 353.526 353.526s-158.28 353.524-353.526 353.524zM36.571 496.762c0 235.641 191.025 426.666 426.666 426.666s426.669-191.025 426.669-426.666c0-235.641-191.028-426.669-426.669-426.669s-426.666 191.028-426.666 426.669zM712.855 247.145c14.282 14.283 37.437 14.283 51.722 0l212.114-212.117c14.277-14.277 14.277-37.435 0-51.719-14.285-14.277-37.442-14.277-51.719 0l-212.117 212.114c-14.283 14.285-14.283 37.44 0 51.722z" />
<glyph unicode="&#xe90d;" glyph-name="vocabularies_nav" horiz-adv-x="1170" d="M146.286 740.571c40.395 0 73.143-32.748 73.143-73.143v-585.143h731.429v585.143c0 40.395 32.746 73.143 73.143 73.143s73.143-32.748 73.143-73.143v-658.286c0-40.397-32.746-73.143-73.143-73.143h-877.714c-40.395 0-73.143 32.746-73.143 73.143v658.286c0 40.395 32.748 73.143 73.143 73.143zM0 886.857c0 40.396 32.747 73.143 73.143 73.143h1024c40.397 0 73.143-32.747 73.143-73.143v-219.429c0-40.395-32.746-73.143-73.143-73.143h-1024c-40.396 0-73.143 32.748-73.143 73.143v219.429zM146.286 813.714v-73.143h877.714v73.143h-877.714zM438.857 448c0 40.395 32.748 73.143 73.143 73.143h146.286c40.395 0 73.143-32.748 73.143-73.143s-32.748-73.143-73.143-73.143h-146.286c-40.395 0-73.143 32.748-73.143 73.143z" />
<glyph unicode="&#xe90e;" glyph-name="chrome" d="M512 832c-212.077 0-384-171.923-384-384s171.923-384 384-384c212.077 0 384 171.923 384 384s-171.923 384-384 384zM0 448c0 282.77 229.23 512 512 512s512-229.23 512-512c0-282.771-229.229-512-512-512s-512 229.229-512 512zM512 576c-70.692 0-128-57.308-128-128s57.308-128 128-128c70.692 0 128 57.308 128 128s-57.308 128-128 128zM256 448c0 141.385 114.615 256 256 256 141.382 0 256-114.615 256-256 0-141.382-114.618-256-256-256-141.385 0-256 114.618-256 256zM448 640c0 35.346 28.654 64 64 64h384c35.347 0 64-28.654 64-64s-28.653-64-64-64h-384c-35.346 0-64 28.654-64 64zM163.393 697.229c31.614 15.807 70.058 2.993 85.865-28.622l128-256c15.807-31.614 2.993-70.058-28.622-85.865-31.615-15.805-70.058-2.993-85.865 28.622l-128 256c-15.807 31.615-2.993 70.058 28.622 85.865zM732.634 441.229c31.616-15.807 44.429-54.25 28.621-85.865l-191.997-383.998c-15.807-31.616-54.251-44.429-85.865-28.621-31.615 15.802-44.429 54.246-28.622 85.862l192.001 383.999c15.808 31.615 54.253 44.429 85.862 28.622z" />
<glyph unicode="&#xe90f;" glyph-name="list" horiz-adv-x="1536" d="M409.6 857.6c0 56.554 45.847 102.4 102.4 102.4h921.6c56.556 0 102.4-45.846 102.4-102.4s-45.844-102.4-102.4-102.4h-921.6c-56.553 0-102.4 45.847-102.4 102.4zM409.6 448c0 56.553 45.847 102.4 102.4 102.4h921.6c56.556 0 102.4-45.847 102.4-102.4s-45.844-102.4-102.4-102.4h-921.6c-56.553 0-102.4 45.847-102.4 102.4zM409.6 38.4c0 56.553 45.847 102.4 102.4 102.4h921.6c56.556 0 102.4-45.847 102.4-102.4s-45.844-102.4-102.4-102.4h-921.6c-56.553 0-102.4 45.847-102.4 102.4zM0 857.6c0 56.554 45.846 102.4 102.4 102.4h102.4c56.553 0 102.4-45.846 102.4-102.4s-45.847-102.4-102.4-102.4h-102.4c-56.554 0-102.4 45.847-102.4 102.4zM0 448c0 56.553 45.846 102.4 102.4 102.4h102.4c56.553 0 102.4-45.847 102.4-102.4s-45.847-102.4-102.4-102.4h-102.4c-56.554 0-102.4 45.847-102.4 102.4zM0 38.4c0 56.553 45.846 102.4 102.4 102.4h102.4c56.553 0 102.4-45.847 102.4-102.4s-45.847-102.4-102.4-102.4h-102.4c-56.554 0-102.4 45.847-102.4 102.4z" />
<glyph unicode="&#xe910;" glyph-name="settings" d="M512 524.8c-42.414 0-76.8-34.386-76.8-76.8s34.386-76.8 76.8-76.8c42.414 0 76.8 34.386 76.8 76.8s-34.386 76.8-76.8 76.8zM384 448c0 70.692 57.308 128 128 128s128-57.308 128-128c0-70.692-57.308-128-128-128s-128 57.308-128 128zM512 883.2c-15.432 0-30.228-6.13-41.139-17.041s-17.044-25.71-17.044-41.141v-7.224c-0.072-18.472-5.545-36.52-15.744-51.922s-24.684-27.484-41.66-34.761c-2.642-1.133-5.453-1.81-8.313-2.009-15.911-5.92-33.158-7.468-49.93-4.426-18.622 3.376-35.806 12.254-49.335 25.488l-0.202 0.198-2.512 2.514c-5.403 5.409-11.83 9.711-18.893 12.639s-14.634 4.435-22.28 4.435c-7.646 0-15.217-1.507-22.28-4.435s-13.48-7.219-18.884-12.628c-5.409-5.404-9.721-11.841-12.649-18.904s-4.435-14.634-4.435-22.28c0-7.646 1.507-15.217 4.435-22.28s7.22-13.48 12.629-18.884l2.723-2.723c13.234-13.53 22.111-30.714 25.487-49.336 3.329-18.357 1.161-37.282-6.221-54.402-6.613-17.518-18.273-32.689-33.512-43.589-15.459-11.054-33.887-17.208-52.888-17.654l-0.599-0.010-3.77 0.005c-15.431 0-30.23-6.129-41.141-17.039s-17.041-25.713-17.041-41.144c0-15.427 6.13-30.228 17.041-41.139s25.71-17.039 41.141-17.039h7.224c18.472-0.077 36.52-5.55 51.922-15.749 15.363-10.173 27.424-24.607 34.707-41.533 7.597-17.28 9.858-36.439 6.489-55.014-3.376-18.627-12.254-35.809-25.488-49.336l-0.198-0.205-2.514-2.509c-5.409-5.407-9.711-11.832-12.639-18.893-2.928-7.066-4.435-14.638-4.435-22.282s1.507-15.217 4.435-22.282c2.928-7.060 7.219-13.476 12.628-18.883 5.404-5.407 11.841-9.723 18.904-12.646 7.063-2.929 14.634-4.439 22.28-4.439s15.217 1.51 22.28 4.439c7.064 2.924 13.48 7.219 18.884 12.626l2.723 2.724c13.53 13.235 30.714 22.113 49.336 25.487 18.357 3.328 37.281 1.162 54.402-6.221 17.518-6.615 32.689-18.273 43.589-33.51 11.054-15.462 17.208-33.889 17.654-52.89l0.010-0.599-0.005-3.768c0-15.432 6.129-30.234 17.039-41.144s25.713-17.039 41.144-17.039c15.427 0 30.228 6.129 41.139 17.039s17.039 25.713 17.039 41.144v7.219c0.077 18.473 5.55 36.521 15.749 51.922 10.173 15.365 24.607 27.428 41.528 34.708 17.285 7.598 36.444 9.861 55.020 6.492 18.627-3.379 35.809-12.257 49.336-25.492l0.205-0.195 2.509-2.514c5.407-5.412 11.832-9.713 18.893-12.641 7.066-2.929 14.638-4.434 22.282-4.434s15.217 1.505 22.282 4.434c7.060 2.929 13.476 7.219 18.883 12.631 5.407 5.402 9.723 11.837 12.646 18.903 2.929 7.060 4.439 14.633 4.439 22.277 0 7.649-1.51 15.222-4.439 22.282-2.924 7.066-7.219 13.481-12.626 18.883l-2.724 2.724c-13.235 13.532-22.113 30.715-25.487 49.336-3.369 18.58-1.106 37.74 6.492 55.020 7.281 16.927 19.343 31.36 34.703 41.533 15.401 10.199 33.449 15.672 51.922 15.744h3.871c15.432 0 30.234 6.134 41.144 17.044s17.039 25.708 17.039 41.139c0 15.432-6.129 30.228-17.039 41.139s-25.713 17.044-41.144 17.044h-7.219c-18.473 0.072-36.521 5.545-51.922 15.744-15.406 10.199-27.489 24.684-34.765 41.66-1.132 2.642-1.807 5.453-2.007 8.313-5.919 15.911-7.47 33.158-4.429 49.93 3.379 18.622 12.257 35.806 25.492 49.335l0.195 0.202 2.514 2.512c5.412 5.404 9.713 11.831 12.641 18.894s4.434 14.634 4.434 22.28c0 7.646-1.505 15.217-4.434 22.28s-7.219 13.48-12.631 18.884c-5.402 5.409-11.837 9.721-18.903 12.649-7.060 2.928-14.633 4.435-22.277 4.435-7.649 0-15.222-1.507-22.282-4.435-7.066-2.928-13.481-7.22-18.883-12.629l-2.724-2.723c-13.532-13.234-30.715-22.111-49.336-25.487-18.58-3.368-37.74-1.108-55.020 6.49-16.922 7.283-31.36 19.344-41.533 34.707-10.199 15.401-15.672 33.449-15.744 51.922v3.872c0 15.431-6.134 30.23-17.044 41.141s-25.708 17.041-41.139 17.041zM434.657 902.363c20.511 20.513 48.333 32.037 77.343 32.037s56.832-11.524 77.343-32.037c20.516-20.513 32.041-48.334 32.041-77.344v-3.721c0.041-8.469 2.555-16.741 7.235-23.803 4.685-7.076 11.336-12.628 19.139-15.971l0.251-0.109c7.956-3.511 16.783-4.559 25.339-3.008 8.515 1.544 16.374 5.591 22.579 11.623l2.391 2.392c10.158 10.17 22.221 18.238 35.502 23.742 13.276 5.505 27.51 8.338 41.887 8.338 14.372 0 28.605-2.833 41.887-8.338 13.276-5.505 25.339-13.573 35.497-23.742 10.163-10.154 18.222-22.211 23.726-35.481 5.504-13.279 8.335-27.512 8.335-41.887s-2.831-28.608-8.335-41.887c-5.504-13.275-13.568-25.334-23.736-35.491 0.005 0.004 0-0.004 0 0l-2.401-2.402c-6.031-6.203-10.081-14.063-11.622-22.579-1.551-8.556-0.507-17.381 3.005-25.336 1.055-2.393 1.736-4.927 2.022-7.516 3.384-6.115 8.197-11.346 14.060-15.228 7.066-4.678 15.34-7.193 23.813-7.235h7.060c29.010 0 56.832-11.523 77.348-32.039 20.511-20.511 32.036-48.333 32.036-77.343s-11.525-56.832-32.036-77.343c-20.516-20.516-48.338-32.041-77.348-32.041h-3.717c-8.468-0.041-16.742-2.555-23.803-7.235-7.081-4.685-12.631-11.336-15.974-19.139l-0.108-0.251c-3.512-7.956-4.562-16.783-3.011-25.339 1.546-8.515 5.596-16.374 11.628-22.579l2.391-2.391c10.168-10.158 18.237-22.221 23.741-35.502 5.504-13.276 8.34-27.51 8.34-41.887 0-14.372-2.836-28.605-8.34-41.887-5.504-13.271-13.568-25.334-23.731-35.487-10.158-10.168-22.216-18.232-35.492-23.736s-27.51-8.335-41.887-8.335c-14.372 0-28.605 2.831-41.887 8.335-13.276 5.509-25.344 13.573-35.502 23.747l-2.391 2.391c-6.205 6.031-14.065 10.081-22.579 11.622-8.556 1.551-17.377 0.507-25.334-3.005l-0.251-0.113c-7.803-3.343-14.454-8.893-19.144-15.969-4.675-7.060-7.188-15.334-7.235-23.803v-7.071c0-29.010-11.525-56.832-32.036-77.348-20.516-20.511-48.333-32.036-77.343-32.036s-56.832 11.525-77.348 32.036c-20.511 20.516-32.036 48.338-32.036 77.348v3.436c-0.254 8.637-3.075 17.004-8.103 24.033-5.080 7.101-12.179 12.513-20.376 15.529-0.506 0.184-1.006 0.389-1.5 0.604-7.955 3.512-16.78 4.562-25.336 3.011-8.515-1.546-16.376-5.596-22.578-11.628l-2.392-2.391c0.004 0.005-0.003-0.005 0 0-10.157-10.163-22.226-18.237-35.501-23.741-13.278-5.504-27.512-8.34-41.886-8.34s-28.608 2.836-41.887 8.34c-13.27 5.499-25.327 13.563-35.481 23.721-10.17 10.158-18.238 22.221-23.742 35.502-5.505 13.276-8.338 27.51-8.338 41.887 0 14.372 2.833 28.605 8.338 41.887 5.505 13.276 13.573 25.344 23.742 35.502l2.393 2.391c6.032 6.2 10.079 14.065 11.623 22.579 1.551 8.556 0.504 17.377-3.007 25.334l-0.111 0.251c-3.343 7.803-8.893 14.454-15.97 19.144-7.062 4.675-15.334 7.188-23.803 7.235h-7.073c-29.010 0-56.831 11.525-77.344 32.036-20.513 20.516-32.037 48.333-32.037 77.343s11.524 56.832 32.037 77.348c20.513 20.511 48.334 32.036 77.344 32.036h3.436c8.636 0.254 17.005 3.075 24.036 8.103 7.102 5.080 12.513 12.179 15.527 20.376 0.186 0.506 0.388 1.006 0.606 1.5 3.511 7.955 4.558 16.78 3.007 25.336-1.544 8.515-5.591 16.375-11.623 22.578l-2.392 2.393c0.003-0.004-0.004 0.003 0 0-10.165 10.157-18.24 22.226-23.742 35.501-5.505 13.279-8.338 27.512-8.338 41.886s2.833 28.608 8.338 41.887c5.502 13.275 13.567 25.335 23.732 35.491 10.157 10.165 22.217 18.229 35.491 23.732 13.279 5.505 27.512 8.338 41.887 8.338s28.608-2.833 41.887-8.338c13.274-5.503 25.334-13.567 35.491-23.732 0.004-0.004-0.003 0.003 0 0l2.402-2.403c6.202-6.032 14.063-10.079 22.578-11.623 8.556-1.551 17.381-0.504 25.336 3.007 2.393 1.056 4.927 1.737 7.516 2.024 6.115 3.381 11.346 8.196 15.228 14.057 4.678 7.065 7.193 15.341 7.235 23.813v7.063c0 29.010 11.523 56.831 32.039 77.344z" />
<glyph unicode="&#xe911;" glyph-name="ball_hamb" horiz-adv-x="228" d="M113.778 334.222c62.838 0 113.778 50.938 113.778 113.778 0 62.838-50.94 113.778-113.778 113.778s-113.778-50.94-113.778-113.778c0-62.839 50.94-113.778 113.778-113.778zM113.778 704c62.838 0 113.778 50.94 113.778 113.778s-50.94 113.778-113.778 113.778c-62.838 0-113.778-50.94-113.778-113.778s50.94-113.778 113.778-113.778zM113.778-35.556c62.838 0 113.778 50.938 113.778 113.778s-50.94 113.778-113.778 113.778c-62.838 0-113.778-50.938-113.778-113.778s50.94-113.778 113.778-113.778z" />
<glyph unicode="&#xe912;" glyph-name="close" d="M98.22 861.791c28.564 28.564 74.876 28.564 103.439 0l724.081-724.078c28.562-28.562 28.562-74.876 0-103.439-28.57-28.562-74.876-28.562-103.446 0l-724.074 724.077c-28.564 28.564-28.564 74.876 0 103.439zM98.22 34.209c-28.564 28.562-28.564 74.876 0 103.439l724.074 724.078c28.57 28.564 74.876 28.564 103.446 0 28.562-28.564 28.562-74.876 0-103.44l-724.081-724.077c-28.564-28.562-74.876-28.562-103.439 0z" />
<glyph unicode="&#xe913;" glyph-name="file_uploaded" d="M682.496 830.916c-82.516 36.766-174.704 45.874-262.816 25.966-88.113-19.908-167.431-67.766-226.123-136.436s-93.614-154.472-99.558-244.612c-5.944-90.14 17.409-179.782 66.577-255.567 49.167-75.781 121.513-133.637 206.25-164.943s177.323-34.383 263.949-8.769c86.63 25.614 162.658 78.541 216.744 150.896 54.090 72.35 83.34 160.247 83.391 250.582v42.794c0 25.708 20.838 46.547 46.545 46.547s46.545-20.839 46.545-46.547v-42.822c-0.065-110.406-35.812-217.865-101.921-306.292-66.109-88.432-159.032-153.125-264.909-184.427-105.877-31.306-219.039-27.546-322.606 10.715-103.567 38.265-191.991 108.982-252.084 201.602s-88.636 202.189-81.371 312.357c7.265 110.17 49.947 215.040 121.682 298.97s168.678 142.423 276.373 166.755c107.696 24.332 220.369 13.2 321.219-31.737 23.482-10.463 34.034-37.979 23.571-61.46-10.459-23.481-37.976-34.034-61.459-23.572zM1010.353 853.293c18.185-18.168 18.199-47.639 0.033-65.825l-465.455-465.922c-8.727-8.732-20.568-13.642-32.922-13.647-12.349-0.005-24.19 4.901-32.922 13.633l-139.637 139.636c-18.177 18.176-18.177 47.648 0 65.825s47.648 18.177 65.826 0l106.705-106.706 432.542 432.973c18.171 18.186 47.639 18.201 65.829 0.033z" />
<glyph unicode="&#xe914;" glyph-name="upload" horiz-adv-x="1229" d="M614.4 499.2c28.278 0 51.2-22.923 51.2-51.2v-460.8c0-28.278-22.922-51.2-51.2-51.2s-51.2 22.922-51.2 51.2v460.8c0 28.277 22.922 51.2 51.2 51.2zM443.584 959.538c69.604 2.565 138.888-10.684 202.637-38.749s120.305-70.217 165.417-123.286c36.429-42.851 64.625-91.919 83.313-144.727h26.67c68.255-0.045 134.579-22.818 188.452-64.724s92.252-100.559 109.092-166.702c16.835-66.145 11.162-136.008-16.118-198.569-27.284-62.561-74.624-114.258-134.548-146.929-24.827-13.532-55.926-4.378-69.463 20.449-13.532 24.827-4.378 55.926 20.449 69.458 39.951 21.78 71.511 56.243 89.697 97.951s21.97 88.284 10.747 132.383c-11.228 44.093-36.813 83.196-72.73 111.133-35.912 27.937-80.108 43.119-125.609 43.149h-64.481c-23.337 0-43.725 15.786-49.567 38.384-13.563 52.45-38.835 101.144-73.923 142.419s-79.078 74.061-128.66 95.889c-49.582 21.829-103.467 32.133-157.605 30.138s-107.119-16.236-154.96-41.654c-47.841-25.418-89.298-61.35-121.253-105.097s-53.578-94.168-63.242-147.473c-9.664-53.306-7.118-108.108 7.447-160.289 14.565-52.178 40.77-100.378 76.643-140.974 18.725-21.187 16.728-53.545-4.462-72.269s-53.545-16.727-72.27 4.46c-46.124 52.193-79.815 114.166-98.542 181.253s-22 137.55-9.575 206.086c12.425 68.536 40.225 133.363 81.31 189.608s94.387 102.445 155.898 135.124c61.511 32.68 129.629 50.991 199.235 53.556zM578.196 484.204c19.994 19.995 52.413 19.995 72.407 0l204.8-204.801c19.994-19.994 19.994-52.413 0-72.407s-52.413-19.994-72.407 0l-168.596 168.596-168.596-168.596c-19.995-19.994-52.413-19.994-72.408 0s-19.995 52.413 0 72.407l204.801 204.801z" />
<glyph unicode="&#xe915;" glyph-name="favourites-line" horiz-adv-x="1109" d="M554.668 917.333c15.961 0 30.588-8.909 37.91-23.091l134.892-261.231 302.435-42.257c16.299-2.278 29.841-13.728 34.79-29.425s0.427-32.842-11.622-44.058l-217.632-202.636 51.275-285.767c2.85-15.906-3.524-32.060-16.478-41.728-12.945-9.668-30.247-11.187-44.686-3.925l-270.884 136.175-270.885-136.175c-14.438-7.262-31.737-5.743-44.687 3.925s-19.327 25.822-16.473 41.728l51.272 285.767-217.636 202.636c-12.046 11.215-16.567 28.361-11.617 44.058s18.487 27.148 34.788 29.425l302.436 42.257 134.891 261.231c7.323 14.182 21.949 23.091 37.911 23.091zM554.668 781.672l-107.114-207.437c-6.355-12.307-18.289-20.763-32.006-22.68l-235.539-32.911 169.066-157.414c10.616-9.884 15.484-24.485 12.922-38.761l-40.315-224.695 213.821 107.491c12.057 6.061 26.271 6.061 38.327 0l213.821-107.491-40.314 224.695c-2.562 14.276 2.305 28.877 12.921 38.761l169.062 157.414-235.535 32.911c-13.718 1.917-25.652 10.373-32.007 22.68l-107.113 207.437z" />
<glyph unicode="&#xe916;" glyph-name="share" horiz-adv-x="956" d="M750.933 857.6c-56.552 0-102.4-45.846-102.4-102.4s45.848-102.4 102.4-102.4c56.552 0 102.4 45.846 102.4 102.4s-45.848 102.4-102.4 102.4zM580.267 755.2c0 94.256 76.41 170.667 170.667 170.667s170.667-76.41 170.667-170.667c0-94.256-76.411-170.667-170.667-170.667s-170.667 76.41-170.667 170.667zM204.8 539.066c-56.554 0-102.4-45.846-102.4-102.4s45.846-102.4 102.4-102.4c56.554 0 102.4 45.847 102.4 102.4s-45.846 102.4-102.4 102.4zM34.133 436.666c0 94.257 76.41 170.667 170.667 170.667s170.667-76.41 170.667-170.667c0-94.256-76.41-170.665-170.667-170.665s-170.667 76.409-170.667 170.665zM750.933 220.535c-56.552 0-102.4-45.848-102.4-102.4 0-56.559 45.848-102.4 102.4-102.4s102.4 45.841 102.4 102.4c0 56.552-45.848 102.4-102.4 102.4zM580.267 118.135c0 94.256 76.41 170.665 170.667 170.665s170.667-76.409 170.667-170.665c0-94.256-76.411-170.667-170.667-170.667s-170.667 76.411-170.667 170.667zM293.181 385.18c9.491 16.288 30.389 21.798 46.677 12.306l310.841-181.135c16.288-9.489 21.797-30.385 12.306-46.674s-30.389-21.798-46.677-12.308l-310.841 181.135c-16.288 9.491-21.798 30.389-12.306 46.677zM662.538 703.732c9.502-16.282 4.006-37.183-12.276-46.684l-310.385-181.135c-16.282-9.501-37.183-4.005-46.685 12.276s-4.005 37.183 12.276 46.685l310.386 181.134c16.282 9.502 37.183 4.005 46.684-12.276z" />
<glyph unicode="&#xe917;" glyph-name="reload" horiz-adv-x="1260" d="M52.538 907.538c21.752 0 39.384-17.633 39.384-39.385v-275.692h275.692c21.751 0 39.385-17.632 39.385-39.385s-17.633-39.385-39.385-39.385h-315.077c-21.751 0-39.385 17.633-39.385 39.385v315.077c0 21.752 17.633 39.385 39.385 39.385zM853.307 342.923c0 21.751 17.636 39.385 39.385 39.385h315.077c21.756 0 39.385-17.633 39.385-39.385v-315.078c0-21.748-17.629-39.385-39.385-39.385-21.748 0-39.385 17.636-39.385 39.385v275.694h-275.692c-21.748 0-39.385 17.632-39.385 39.385zM488.207 939.684c83.083 24.032 170.899 26.625 255.255 7.539s162.502-59.231 227.148-116.688c64.646-57.457 113.68-130.354 142.533-211.888 7.255-20.505-3.482-43.010-23.993-50.267-20.504-7.256-43.008 3.484-50.263 23.99-24.418 68.99-65.906 130.672-120.604 179.289-54.705 48.617-120.824 82.586-192.206 98.736-71.378 16.15-145.684 13.955-215.984-6.38s-134.305-58.146-186.040-109.907l-0.886-0.859-243.66-228.956c-15.851-14.894-40.776-14.119-55.671 1.732s-14.119 40.776 1.732 55.671l243.219 228.542c61.063 60.944 136.539 105.472 219.42 129.445zM1236.519 369.914c14.895-15.852 14.123-40.776-1.733-55.672l-243.216-228.542c-61.062-60.944-136.539-105.472-219.418-129.441-83.083-24.032-170.899-26.632-255.255-7.538-84.356 19.086-162.502 59.227-227.148 116.689-64.644 57.454-113.681 130.35-142.533 211.884-7.256 20.505 3.485 43.010 23.99 50.267s43.010-3.484 50.267-23.99c24.413-68.99 65.905-130.672 120.604-179.288s120.823-82.59 192.202-98.737c71.378-16.148 145.684-13.958 215.985 6.38 70.297 20.33 134.305 58.147 186.040 109.907l0.882 0.859 243.665 228.956c15.848 14.894 40.771 14.119 55.666-1.732z" />
<glyph unicode="&#xe918;" glyph-name="back" d="M46.545 432.455c0 25.706 20.839 46.545 46.545 46.545h868.845c25.712 0 46.545-20.839 46.545-46.545s-20.834-46.545-46.545-46.545h-868.845c-25.706 0-46.545 20.839-46.545 46.545zM560.428 899.822c18.177-18.177 18.177-47.648 0-65.825l-401.511-401.512 401.511-401.511c18.177-18.173 18.177-47.646 0-65.826-18.177-18.171-47.648-18.171-65.826 0l-434.424 434.425c-18.177 18.177-18.177 47.648 0 65.826l434.424 434.424c18.178 18.177 47.649 18.177 65.826 0z" />
<glyph unicode="&#xe919;" glyph-name="vocabularies" horiz-adv-x="1097" d="M36.571 886.857c0 20.198 16.374 36.571 36.571 36.571h292.571c61.429 0 120.343-24.403 163.779-67.84s67.84-102.35 67.84-163.779v-682.666c0-20.195-16.374-36.571-36.571-36.571s-36.571 16.377-36.571 36.571c0 29.096-11.559 57.008-32.135 77.583s-48.482 32.132-77.58 32.132h-341.334c-20.198 0-36.571 16.377-36.571 36.571v731.429zM524.191 155.429v536.381c0 42.031-16.697 82.34-46.417 112.060s-70.028 46.416-112.059 46.416h-256v-658.286h304.762c39.793 0 78.248-12.968 109.714-36.571zM592.018 855.589c43.437 43.437 102.35 67.84 163.781 67.84h292.571c20.195 0 36.571-16.374 36.571-36.571v-731.429c0-20.195-16.377-36.571-36.571-36.571h-341.336c-29.098 0-57.004-11.557-77.58-32.132s-32.135-48.486-32.135-77.583c0-20.195-16.373-36.571-36.571-36.571s-36.571 16.377-36.571 36.571v682.666c0 61.43 24.403 120.343 67.84 163.779zM597.321 155.429c31.466 23.603 69.922 36.571 109.714 36.571h304.764v658.286h-256c-42.033 0-82.342-16.696-112.061-46.416s-46.417-70.029-46.417-112.060v-536.381z" />
<glyph unicode="&#xe91a;" glyph-name="terms" d="M34.133 891.733c0 18.851 15.282 34.133 34.133 34.133h455.111c9.052 0 17.734-3.596 24.136-9.997l391.010-391.013c23.313-23.449 36.4-55.17 36.4-88.235s-13.087-64.785-36.4-88.235l-0.068-0.072-326.302-326.3c-11.623-11.639-25.427-20.869-40.62-27.17-15.194-6.294-31.48-9.537-47.927-9.537s-32.733 3.243-47.927 9.537c-15.193 6.301-28.997 15.531-40.62 27.17l-390.913 390.456c-6.41 6.403-10.012 15.090-10.012 24.15v455.111zM102.4 857.6v-406.828l380.929-380.485c5.284-5.291 11.586-9.516 18.491-12.377s14.309-4.335 21.785-4.335c7.476 0 14.879 1.475 21.785 4.335s13.18 7.059 18.463 12.349l326.255 326.255c0.007 0.009-0.007-0.008 0 0 10.581 10.656 16.548 25.089 16.548 40.107s-5.939 29.426-16.521 40.082c-0.007 0.008 0.007-0.008 0 0l-380.897 380.896h-406.839zM227.533 664.134c0 37.702 30.564 68.267 68.267 68.267h0.455c37.703 0 68.267-30.564 68.267-68.267s-30.564-68.267-68.267-68.267h-0.455c-37.703 0-68.267 30.564-68.267 68.267z" />
<glyph unicode="&#xe91b;" glyph-name="data_products" d="M159.289 857.6c-31.418 0-56.889-25.47-56.889-56.889v-182.045c0-31.419 25.47-56.889 56.889-56.889h728.178c31.416 0 56.887 25.47 56.887 56.889v182.045c0 31.418-25.47 56.889-56.887 56.889h-728.178zM34.133 800.711c0 69.121 56.034 125.155 125.155 125.155h728.178c69.12 0 125.153-56.034 125.153-125.155v-182.045c0-69.121-56.033-125.155-125.153-125.155h-728.178c-69.121 0-125.155 56.034-125.155 125.155v182.045zM159.289 311.467c-31.418 0-56.889-25.47-56.889-56.887v-182.047c0-31.416 25.47-56.887 56.889-56.887h728.178c31.416 0 56.887 25.47 56.887 56.887v182.047c0 31.416-25.47 56.887-56.887 56.887h-728.178zM34.133 254.58c0 69.119 56.034 125.153 125.155 125.153h728.178c69.12 0 125.153-56.034 125.153-125.153v-182.047c0-69.12-56.033-125.153-125.153-125.153h-728.178c-69.121 0-125.155 56.033-125.155 125.153v182.047zM216.166 709.667c0 18.851 15.282 34.133 34.133 34.133h0.455c18.851 0 34.133-15.282 34.133-34.133s-15.282-34.133-34.133-34.133h-0.455c-18.851 0-34.133 15.282-34.133 34.133zM216.166 163.533c0 18.855 15.282 34.133 34.133 34.133h0.455c18.851 0 34.133-15.278 34.133-34.133 0-18.848-15.282-34.133-34.133-34.133h-0.455c-18.851 0-34.133 15.285-34.133 34.133z" />
<glyph unicode="&#xe91c;" glyph-name="quality_rules" d="M804.571 265.143c-60.592 0-109.714-49.123-109.714-109.714s49.123-109.714 109.714-109.714c60.592 0 109.714 49.123 109.714 109.714s-49.123 109.714-109.714 109.714zM621.714 155.429c0 100.989 81.868 182.857 182.857 182.857s182.857-81.868 182.857-182.857c0-100.988-81.869-182.857-182.857-182.857s-182.857 81.869-182.857 182.857zM219.429 850.286c-60.594 0-109.714-49.121-109.714-109.714s49.121-109.714 109.714-109.714c60.594 0 109.714 49.121 109.714 109.714s-49.121 109.714-109.714 109.714zM36.571 740.571c0 100.989 81.868 182.857 182.857 182.857s182.857-81.868 182.857-182.857c0-100.989-81.868-182.857-182.857-182.857s-182.857 81.868-182.857 182.857zM524.178 740.571c0 20.198 16.374 36.571 36.571 36.571h146.286c35.562 0 69.669-14.128 94.822-39.276 25.147-25.148 39.27-59.255 39.27-94.819v-341.334c0-20.198-16.369-36.571-36.571-36.571-20.195 0-36.571 16.374-36.571 36.571v341.334c0 16.165-6.422 31.669-17.847 43.099-11.432 11.431-26.937 17.853-43.103 17.853h-146.286c-20.198 0-36.571 16.374-36.571 36.571zM219.429 630.857c20.198 0 36.571-16.374 36.571-36.571v-585.143c0-20.195-16.374-36.571-36.571-36.571s-36.571 16.377-36.571 36.571v585.143c0 20.198 16.374 36.571 36.571 36.571z" />
<glyph unicode="&#xe91d;" glyph-name="domains" horiz-adv-x="1170" d="M195.060 850.286c-16.165 0-31.669-6.422-43.1-17.853s-17.852-26.934-17.852-43.099v-682.669c0-16.165 6.421-31.664 17.852-43.096s26.935-17.854 43.1-17.854h780.191c16.165 0 31.671 6.422 43.103 17.854 11.425 11.432 17.847 26.931 17.847 43.096v536.384c0 16.165-6.422 31.669-17.847 43.099-11.432 11.431-26.939 17.853-43.103 17.853h-438.857c-12.228 0-23.647 6.111-30.43 16.285l-86.667 130h-224.237zM100.24 884.153c25.147 25.148 59.255 39.276 94.819 39.276h243.809c12.228 0 23.646-6.111 30.43-16.285l86.667-130h419.285c35.562 0 69.669-14.128 94.822-39.276 25.147-25.148 39.27-59.255 39.27-94.819v-536.384c0-35.562-14.124-69.669-39.27-94.815-25.154-25.147-59.26-39.278-94.822-39.278h-780.191c-35.564 0-69.672 14.131-94.819 39.278s-39.276 59.253-39.276 94.815v682.669c0 35.564 14.128 69.671 39.276 94.819z" />
<glyph unicode="&#xe91e;" glyph-name="datasets" horiz-adv-x="896" d="M113.984 771.378c-15.784-12.44-17.984-21.025-17.984-24.691s2.2-12.251 17.984-24.69c15.423-12.156 39.725-24.501 72.606-35.462 65.429-21.809 157.853-35.848 261.41-35.848s195.981 14.039 261.408 35.848c32.883 10.961 57.184 23.306 72.608 35.462 15.782 12.439 17.984 21.025 17.984 24.69s-2.202 12.251-17.984 24.691c-15.424 12.155-39.725 24.501-72.608 35.461-65.427 21.81-157.852 35.848-261.408 35.848s-195.981-14.038-261.41-35.848c-32.881-10.96-57.183-23.306-72.606-35.461zM166.352 867.555c73.551 24.517 173.127 39.132 281.648 39.132s208.096-14.615 281.651-39.132c36.608-12.203 68.538-27.439 91.981-45.911 23.078-18.188 42.368-43.276 42.368-74.957s-19.29-56.769-42.368-74.956c-23.443-18.472-55.373-33.708-91.981-45.911-73.555-24.518-173.13-39.133-281.651-39.133s-208.097 14.615-281.648 39.133c-36.609 12.203-68.543 27.439-91.983 45.911-23.078 18.188-42.369 43.276-42.369 74.956s19.291 56.769 42.369 74.957c23.439 18.472 55.374 33.708 91.983 45.911zM64 480c17.673 0 32-14.327 32-32 0-3.807 2.244-12.415 17.874-24.799 15.31-12.132 39.471-24.461 72.259-35.407 65.245-21.782 157.657-35.793 261.867-35.793s196.621 14.012 261.869 35.793c32.787 10.946 56.947 23.275 72.256 35.407 15.629 12.385 17.875 20.993 17.875 24.799 0 17.673 14.33 32 32 32s32-14.327 32-32c0-31.607-19.091-56.705-42.125-74.961-23.36-18.508-55.194-33.752-91.744-45.953-73.421-24.514-173.008-39.087-282.131-39.087s-208.712 14.573-282.133 39.087c-36.545 12.2-68.385 27.445-91.741 45.953-23.037 18.255-42.126 43.354-42.126 74.961 0 17.673 14.327 32 32 32zM64 778.687c17.673 0 32-14.327 32-32v-597.331c0-3.808 2.244-12.416 17.874-24.8 15.31-12.134 39.471-24.461 72.259-35.411 65.245-21.779 157.657-35.789 261.867-35.789s196.621 14.010 261.869 35.789c32.787 10.95 56.947 23.277 72.256 35.411 15.629 12.384 17.875 20.992 17.875 24.8v597.331c0 17.673 14.33 32 32 32s32-14.327 32-32v-597.331c0-31.61-19.091-56.71-42.125-74.963-23.36-18.509-55.194-33.754-91.744-45.952-73.421-24.512-173.008-39.085-282.131-39.085s-208.712 14.573-282.133 39.085c-36.545 12.198-68.385 27.443-91.741 45.952-23.037 18.253-42.126 43.354-42.126 74.963v597.331c0 17.673 14.327 32 32 32z" />
<glyph unicode="&#xe91f;" glyph-name="logout" d="M365.714 45.714h-197.486c-14.629 0-29.257 0-43.886 14.629s-14.629 29.257-14.629 43.886v687.543c0 14.629 0 29.257 14.629 43.886s29.257 14.629 43.886 14.629h197.486c21.943 0 36.571 14.629 36.571 36.571s-14.629 36.571-36.571 36.571h-197.486c-36.571 0-73.143-14.629-95.086-36.571s-36.571-58.514-36.571-95.086v-680.229c0-36.571 14.629-73.143 36.571-95.086s58.514-36.571 95.086-36.571h197.486c21.943 0 36.571 14.629 36.571 36.571s-14.629 36.571-36.571 36.571zM987.429 448v0s0 0 0 0c0 0 0 7.314 0 14.629 0 0 0 7.314-7.314 14.629l-241.371 241.371c-14.629 14.629-36.571 14.629-51.2 0s-14.629-36.571 0-51.2l182.857-182.857h-497.371c-21.943 0-36.571-14.629-36.571-36.571s14.629-36.571 36.571-36.571h497.371l-182.857-182.857c-14.629-14.629-14.629-36.571 0-51.2s36.571-14.629 51.2 0l241.371 241.371s0 0 0 0c0 0 0 0 0 7.314 0 0 0 7.314 0 14.629z" />
<glyph unicode="&#xe920;" glyph-name="user" horiz-adv-x="878" d="M797.257 272.457c-43.886 43.886-102.4 65.829-160.914 65.829h-394.971c-58.514 0-117.029-21.943-160.914-65.829s-65.829-102.4-65.829-160.914v-95.086c0-21.943 14.629-36.571 36.571-36.571s36.571 14.629 36.571 36.571v95.086c0 43.886 14.629 80.457 43.886 109.714s73.143 43.886 109.714 43.886h387.657c43.886 0 80.457-14.629 109.714-43.886s43.886-73.143 43.886-109.714v-95.086c0-21.943 14.629-36.571 36.571-36.571s36.571 14.629 36.571 36.571v95.086c0 58.514-21.943 117.029-65.829 160.914zM438.857 462.629c124.343 0 234.057 102.4 234.057 234.057s-109.714 226.743-234.057 226.743-234.057-102.4-234.057-234.057 102.4-234.057 234.057-234.057zM438.857 850.286c87.771 0 160.914-73.143 160.914-160.914s-73.143-160.914-160.914-160.914-160.914 73.143-160.914 160.914 73.143 160.914 160.914 160.914z" />
<glyph unicode="&#xe921;" glyph-name="user-check" d="M231.573 344.427c25.338 25.34 59.704 39.573 95.538 39.573h199.11c35.836 0 70.199-14.234 95.539-39.573s39.573-59.703 39.573-95.539v-56.887c0-11.78-9.553-21.333-21.333-21.333s-21.333 9.553-21.333 21.333v56.887c0 24.521-9.741 48.034-27.076 65.37s-40.849 27.076-65.37 27.076h-199.11c-24.518 0-48.032-9.741-65.368-27.076s-27.076-40.849-27.076-65.37v-56.887c0-11.78-9.551-21.333-21.333-21.333s-21.333 9.553-21.333 21.333v56.887c0 35.836 14.235 70.199 39.573 95.539zM405.333 682.667c-47.128 0-85.333-38.205-85.333-85.333s38.205-85.333 85.333-85.333c47.13 0 85.333 38.205 85.333 85.333s-38.204 85.333-85.333 85.333zM277.333 597.333c0 70.692 57.308 128 128 128 70.694 0 128-57.308 128-128 0-70.694-57.306-128-128-128-70.692 0-128 57.306-128 128zM824.841 549.278c8.806-7.828 9.6-21.312 1.771-30.118l-113.779-128c-4.045-4.553-9.847-7.159-15.945-7.159-6.093 0-11.895 2.607-15.945 7.159l-56.887 64c-7.829 8.806-7.036 22.289 1.771 30.118s22.293 7.036 30.118-1.771l40.943-46.063 97.835 110.062c7.829 8.806 21.312 9.599 30.118 1.772z" />
<glyph unicode="&#xe922;" glyph-name="file" d="M298.374 743.38c13.767 15.419 32.992 24.62 53.626 24.62h186.667c6.076 0 11.866-2.592 15.915-7.125l186.667-209.067c3.49-3.91 5.419-8.967 5.419-14.208v-328.533c0-20.77-7.343-41.105-21.039-56.448-13.769-15.415-32.994-24.619-53.628-24.619h-320c-20.633 0-39.858 9.203-53.626 24.619-13.696 15.343-21.041 35.678-21.041 56.448v477.867c0 20.769 7.345 41.106 21.041 56.446zM352 725.333c-7.657 0-15.562-3.385-21.799-10.371-6.307-7.064-10.201-17.114-10.201-28.029v-477.867c0-10.914 3.894-20.966 10.201-28.028 6.237-6.989 14.142-10.372 21.799-10.372h320c7.654 0 15.561 3.383 21.798 10.372 6.306 7.061 10.202 17.114 10.202 28.028v320.397l-174.886 195.87h-177.114zM554.667 746.667c11.78 0 21.333-9.551 21.333-21.333v-170.667h149.333c11.78 0 21.333-9.551 21.333-21.333 0-11.78-9.553-21.333-21.333-21.333h-170.667c-11.78 0-21.333 9.553-21.333 21.333v192c0 11.782 9.553 21.333 21.333 21.333z" />
<glyph unicode="&#xe923;" glyph-name="publications" d="M277.333 362.667v384c0 11.782 9.551 21.333 21.333 21.333s21.333-9.551 21.333-21.333v-384c0-11.78-9.551-21.333-21.333-21.333s-21.333 9.553-21.333 21.333zM789.333 640c0 47.128-38.204 85.333-85.333 85.333s-85.333-38.205-85.333-85.333c0-47.128 38.204-85.333 85.333-85.333s85.333 38.205 85.333 85.333zM832 640c0-70.692-57.306-128-128-128s-128 57.308-128 128c0 70.692 57.306 128 128 128s128-57.308 128-128zM405.333 256c0 47.13-38.205 85.333-85.333 85.333s-85.333-38.204-85.333-85.333c0-47.13 38.205-85.333 85.333-85.333s85.333 38.204 85.333 85.333zM448 256c0-70.694-57.308-128-128-128s-128 57.306-128 128c0 70.694 57.308 128 128 128s128-57.306 128-128zM704 533.333c0 11.782 9.553 21.333 21.333 21.333s21.333-9.551 21.333-21.333c0-84.868-33.698-166.281-93.709-226.291s-141.423-93.709-226.291-93.709c-11.782 0-21.333 9.553-21.333 21.333s9.551 21.333 21.333 21.333c73.553 0 144.115 29.197 196.126 81.207s81.207 122.573 81.207 196.126z" />
<glyph unicode="&#xe924;" glyph-name="queries" d="M789.333 256c0 47.13-38.204 85.333-85.333 85.333s-85.333-38.204-85.333-85.333c0-47.13 38.204-85.333 85.333-85.333s85.333 38.204 85.333 85.333zM832 256c0-70.694-57.306-128-128-128s-128 57.306-128 128c0 70.694 57.306 128 128 128s128-57.306 128-128zM405.333 640c0 47.128-38.205 85.333-85.333 85.333s-85.333-38.205-85.333-85.333c0-47.128 38.205-85.333 85.333-85.333s85.333 38.205 85.333 85.333zM448 640c0-70.692-57.308-128-128-128s-128 57.308-128 128c0 70.692 57.308 128 128 128s128-57.308 128-128zM277.333 149.333v384c0 11.782 9.551 21.333 21.333 21.333 10.313 0 18.932-7.315 20.916-17.041l0.417-4.292 0.333-13.167c3.376-65.694 31.939-128.179 80.625-175.125 48.71-46.967 113.828-74.752 182.585-78.042l13.79-0.333 4.292-0.418c9.728-1.984 17.041-10.603 17.041-20.915s-7.313-18.931-17.041-20.915l-4.292-0.418-15.834 0.375c-78.878 3.776-153.856 35.661-210.167 89.958-20.187 19.465-37.349 41.323-51.333 64.832v-229.833c0-11.78-9.551-21.333-21.333-21.333s-21.333 9.553-21.333 21.333z" />
<glyph unicode="&#xe925;" glyph-name="check" horiz-adv-x="1365" d="M1210.994 886.101c22.016 22.387 58.038 22.672 80.452 0.667 22.38-22.018 22.665-58.039 0.66-80.445l-782.22-796.444c-10.694-10.873-25.304-17-40.556-17-15.251 0-29.861 6.127-40.555 17l-355.556 362-7.222 9.001c-14.395 22.2-11.699 52.169 7.889 71.444 19.628 19.277 49.713 21.479 71.666 6.666l8.778-7.333 314.889-320.667 741.774 755.111z" />
<glyph unicode="&#xe926;" glyph-name="user-anonymisation" d="M661.333 149.333v71.125c-0.004 32.738-11.716 63.753-32 86.293-20.22 22.464-47.147 34.581-74.667 34.581h-256c-27.521 0-54.447-12.117-74.667-34.581-20.283-22.541-31.997-53.555-32-86.293v-71.125c0-11.78-9.551-21.333-21.333-21.333s-21.333 9.553-21.333 21.333v71.125c0.003 42.688 15.238 84.032 42.959 114.833 27.789 30.878 66.001 48.708 106.375 48.708h256c40.375 0 78.583-17.83 106.377-48.708 27.721-30.801 42.953-72.145 42.957-114.833v-71.125c0-11.78-9.553-21.333-21.333-21.333s-21.333 9.553-21.333 21.333zM533.333 618.667c0 58.91-47.757 106.667-106.667 106.667s-106.667-47.756-106.667-106.667c0-58.91 47.756-106.667 106.667-106.667s106.667 47.756 106.667 106.667zM576 618.667c0-82.475-66.859-149.333-149.333-149.333s-149.333 66.859-149.333 149.333c0 82.475 66.859 149.333 149.333 149.333s149.333-66.859 149.333-149.333zM832 703.922v0.041l-0.252 5.583c-1.156 12.936-6.387 25.334-15.164 35.459-10.048 11.586-24.119 19.439-39.753 22.042-15.629 2.599-31.667-0.25-45.248-8-13.572-7.746-23.753-19.823-28.877-33.958l-20.041 7.292-20.041 7.25c8.644 23.853 25.647 43.84 47.834 56.5 22.17 12.644 48.175 17.245 73.417 13.041 25.25-4.207 48.29-16.986 64.956-36.208 16.678-19.235 25.869-43.695 25.835-69.041l-0.333-7.334c-3.443-36.007-31.701-60.496-53.333-74.5-12.262-7.937-24.38-13.804-33.335-17.667-4.501-1.942-8.294-3.416-10.999-4.416l-4.122-1.5c-0.115-0.037-0.222-0.059-0.294-0.083l-0.124-0.042h-0.043l-4.207-0.916c-9.865-1.11-19.486 4.817-22.669 14.625-3.622 11.201 2.517 23.238 13.709 26.875l0.085 0.041c0.098 0.034 0.29 0.080 0.542 0.167 0.503 0.174 1.293 0.45 2.334 0.833 2.095 0.775 5.188 1.976 8.913 3.583 7.509 3.241 17.357 8.024 27.042 14.292 20.83 13.481 34.159 29.249 34.167 46.042zM702.707 725.088c-4.015-11.063-16.222-16.791-27.29-12.791-11.076 4.013-16.806 16.256-12.791 27.333l40.081-14.542zM764.582 554.479l4.292-0.417c9.732-1.981 17.041-10.6 17.041-20.917s-7.309-18.935-17.041-20.915l-4.292-0.418h-0.414c-11.785 0-21.333 9.553-21.333 21.333 0 11.782 9.549 21.334 21.333 21.334h0.414z" />
<glyph unicode="&#xe927;" glyph-name="bluesky" horiz-adv-x="1170" d="M301.21 859.427c125.775-92.963 261.080-281.423 310.742-382.56 49.663 101.137 184.976 289.597 310.753 382.56 90.77 67.061 237.824 118.964 237.824-46.169 0-32.968-19.207-277.050-30.479-316.684-39.153-137.743-181.87-172.879-308.816-151.619 221.893-37.17 278.338-160.283 156.431-283.404-231.512-233.838-332.759 58.668-358.681 133.617-7.477 21.57-6.41 22.067-14.060 0-25.924-74.949-127.162-367.455-358.676-133.617-121.907 123.121-65.467 246.234 156.427 283.404-126.941-21.26-269.658 13.876-308.812 151.619-11.274 39.635-30.478 283.716-30.478 316.684 0 165.133 147.071 113.23 237.826 46.169z" />
<glyph unicode="&#xe928;" glyph-name="gitlab" horiz-adv-x="1081" d="M533.11 66.435l-157.013 483.199h314.028l-157.014-483.199zM533.11 66.435l-377.088 483.199h220.075l157.013-483.199zM156.022 549.634l377.088-483.199-413.013 300.032c-5.549 4.039-9.677 9.734-11.792 16.265-2.115 6.525-2.109 13.56 0.016 20.086l47.701 146.816zM156.022 549.634l94.592 291.072c1.046 3.276 3.105 6.134 5.882 8.161s6.125 3.121 9.564 3.121c3.438 0 6.787-1.093 9.564-3.121s4.836-4.886 5.882-8.161l94.592-291.072h-220.075zM533.11 66.435l157.014 483.199h220.029l-377.044-483.199zM910.154 549.634l47.747-146.816c2.122-6.531 2.116-13.567-0.006-20.098s-6.258-12.22-11.816-16.253l-412.969-300.032 377.044 483.199zM910.154 549.634h-220.029l94.549 291.072c1.035 3.292 3.089 6.167 5.871 8.208s6.144 3.142 9.591 3.142c3.453 0 6.815-1.101 9.597-3.142s4.836-4.916 5.871-8.208l94.549-291.072z" />
<glyph unicode="&#xe929;" glyph-name="linkedin" horiz-adv-x="1097" d="M79.842 742.22c-23.118 21.464-34.614 48.032-34.614 79.644s11.558 59.348 34.614 80.874c23.118 21.464 52.876 32.227 89.335 32.227s65.050-10.763 88.106-32.227c23.118-21.464 34.614-48.463 34.614-80.874s-11.558-58.18-34.614-79.644c-23.118-21.465-52.446-32.227-88.106-32.227s-66.218 10.762-89.335 32.227zM272.469 619.094v-658.065h-207.875v658.065h207.875zM964.454 554.092c45.319-49.201 67.942-116.73 67.942-202.708v-378.724h-197.42v352.033c0 43.358-11.249 77.061-33.697 101.046-22.44 23.986-52.685 36.040-90.562 36.040-37.873 0-68.125-11.993-90.566-36.040-22.441-23.985-33.693-57.688-33.693-101.046v-352.033h-198.589v648.284h198.589v-85.979c20.106 28.66 47.22 51.291 81.282 67.958s72.362 24.97 114.975 24.97c75.871 0 136.492-24.6 181.738-73.74v-0.061z" />
<glyph unicode="&#xe92a;" glyph-name="website" horiz-adv-x="626" d="M445.037 681.622v9.342c0 11.428 9.388 20.778 20.862 20.778h18.776c11.474 0 20.862-9.35 20.862-20.778v-9.342c0-11.428-9.388-20.778-20.862-20.778h-18.776c-11.474 0-20.862 9.35-20.862 20.778zM589.733 665.597v-441.455h-0.057c0.023-1.61 0.057-3.22 0.057-4.847 0-156.462-127.346-283.295-284.439-283.295s-284.44 126.845-284.44 283.307c0 156.456 121.427 277.284 273.4 283.059l65.056 0.303v286.854c0 11.428 9.388 20.779 20.862 20.779h18.776c11.474 0 20.862-9.35 20.862-20.779v-286.854l0.287-15.185c0-5.714 4.694-10.389 10.431-10.389h4.172c5.737 0 10.431 4.675 10.431 10.389v134.557c0.905 10.614 9.892 19.029 20.776 19.029h18.776c11.474 0 20.862-9.35 20.862-20.778v-117.631l0.582-96.022c0-5.714 4.694-10.39 10.431-10.39h2.086c5.737 0 10.431 4.675 10.431 10.39l0.166 96.022v162.928c0 11.428 9.388 20.779 20.862 20.779h18.776c11.477 0 20.863-9.35 20.863-20.779l-0.011 0.009zM437.561 219.307c0 72.75-59.215 131.732-132.267 131.732s-132.267-58.977-132.267-131.732c0-72.761 59.215-131.738 132.267-131.738s132.267 58.977 132.267 131.738zM465.899 733.386h18.776c11.474 0 20.862 9.35 20.862 20.779v105.9c0 11.428-9.388 20.778-20.862 20.778h-18.776c-11.474 0-20.862-9.35-20.862-20.778v-105.9c0-11.428 9.388-20.779 20.862-20.779zM568.872 847.702h-18.776c-11.474 0-20.862-9.35-20.862-20.779v-94.602c0-11.428 9.388-20.779 20.862-20.779h18.776c11.474 0 20.861 9.35 20.861 20.779v94.602c0 11.428-9.387 20.779-20.861 20.779zM568.872 960h-18.776c-11.474 0-20.862-9.35-20.862-20.778v-47.089c0-11.428 9.388-20.778 20.862-20.778h18.776c11.474 0 20.861 9.35 20.861 20.778v47.089c0 11.428-9.387 20.778-20.861 20.778z" />
<glyph unicode="&#xe92b;" glyph-name="x" horiz-adv-x="1097" d="M17.253 938.643l404.682-541.21-407.203-440.038h91.672l356.54 385.241 288.050-385.241h311.903l-427.432 571.651 379.041 409.598h-91.67l-328.319-354.8-265.299 354.8h-311.965zM152.024 871.115h143.255l632.721-846.195h-143.25l-632.726 846.195z" />
<glyph unicode="&#xe92c;" glyph-name="youtube" horiz-adv-x="1451" d="M1358.592 660.148c-8.055 77.784-25.395 163.771-89.199 208.958-49.417 35.043-114.381 36.338-175.019 36.266-128.188 0-256.445-0.216-384.632-0.288-123.296-0.144-246.591-0.216-369.887-0.36-51.505 0-101.571 3.958-149.408-18.349-41.074-19.14-73.229-55.55-92.579-96.061-26.832-56.341-32.442-120.166-35.679-182.479-5.971-113.475-5.323-227.236 1.798-340.638 5.251-82.749 18.559-174.202 82.508-226.947 56.684-46.703 136.676-49.007 210.192-49.075 233.355-0.213 466.783-0.435 700.209-0.572 29.926-0.077 61.15 0.503 91.648 3.806 59.989 6.477 117.18 23.68 155.733 68.147 38.921 44.827 48.922 107.213 54.818 166.288 14.387 143.335 14.242 288.038-0.503 431.302zM574.793 247.050v401.872l347.873-200.899-347.873-200.973z" />
<glyph unicode="&#xe92d;" glyph-name="zendesk" horiz-adv-x="1088" d="M501.327 106.675h-409.6l409.6 516.52v-516.52zM296.527 584.544c54.316 0 106.408 21.577 144.815 59.984s59.985 90.499 59.985 144.816h-409.6c0-54.317 21.577-106.408 59.985-144.816s90.499-59.984 144.815-59.984zM569.593 789.344h409.601l-409.601-516.518v516.518zM774.394 311.475c-54.317 0-106.406-21.574-144.816-59.981-38.407-38.406-59.985-90.502-59.985-144.819h409.601c0 54.317-21.574 106.413-59.987 144.819-38.406 38.406-90.496 59.981-144.813 59.981z" />
<glyph unicode="&#xe92e;" glyph-name="databases" d="M803.541 462.229l4.292-0.418c9.728-1.984 17.041-10.603 17.041-20.915s-7.313-18.931-17.041-20.915l-4.292-0.418h-597.333c-11.782 0-21.333 9.553-21.333 21.333s9.551 21.333 21.333 21.333h597.333zM782.208 457.105l-100.749 197.583c-3.132 6.192-8 11.462-14.084 15.167-4.561 2.775-9.651 4.599-14.959 5.333l-5.376 0.375h-284.332c-7.216-0.006-14.252-2.006-20.334-5.708-6.083-3.705-10.95-8.975-14.083-15.167l-0.042-0.042-100.708-197.541v-170.876c0-9.775 3.965-19.217 11.125-26.249 7.173-7.044 16.985-11.085 27.292-11.085h477.833c10.308 0 20.117 4.041 27.294 11.085 7.159 7.031 11.123 16.474 11.123 26.249v170.876zM824.875 286.229c0-21.342-8.631-41.737-23.876-56.708-15.228-14.959-35.827-23.292-57.207-23.292h-477.833c-21.378 0-41.977 8.333-57.208 23.292-15.244 14.972-23.875 35.366-23.875 56.708v176c0 3.366 0.803 6.707 2.333 9.707l103.041 202.085c6.758 13.331 17.13 24.504 29.917 32.292 12.801 7.795 27.54 11.909 42.542 11.917l289.959-0.209c13.039-0.9 25.715-4.888 36.915-11.708 12.787-7.788 23.159-18.961 29.918-32.292l103.040-202.085c1.532-2.999 2.334-6.34 2.334-9.707v-176zM313.083 341.333c11.782 0 21.333-9.553 21.333-21.333s-9.551-21.333-21.333-21.333h-0.208c-11.782 0-21.333 9.553-21.333 21.333s9.551 21.333 21.333 21.333h0.208zM412.625 341.333c11.782 0 21.333-9.553 21.333-21.333s-9.551-21.333-21.333-21.333h-0.208c-11.782 0-21.333 9.553-21.333 21.333s9.551 21.333 21.333 21.333h0.208z" />
<glyph unicode="&#xe92f;" glyph-name="actions" d="M544.154 638.347c0 22.337 8.75 43.819 24.385 59.769l0.308 0.231 126.923 127.077c-26.978 4.581-54.701 4.576-81.923-0.384-47.247-8.614-90.732-31.425-124.692-65.385s-56.77-77.446-65.385-124.692c-8.61-47.258-2.65-96.082 17.154-139.846 6.742-14.929 3.585-32.492-8.001-44.077l-317.538-317.462c-10.891-10.886-16.996-25.679-17-41.078 0-15.399 6.114-30.184 17-41.078 10.891-10.886 25.676-16.991 41.077-16.998 15.406 0 30.184 6.105 41.077 16.998l317.538 317.464 4.616 4c11.327 8.268 26.403 9.986 39.461 4.077 43.761-19.8 92.515-25.84 139.77-17.231 47.258 8.611 90.801 31.418 124.767 65.385s56.777 77.512 65.386 124.77c4.962 27.234 4.821 54.935 0.228 81.922l-127.228-127.23c-15.951-15.636-37.433-24.385-59.769-24.385-22.324 0.009-43.75 8.758-59.693 24.385l-0.307 0.231-73.77 73.846c-15.625 15.947-24.381 37.367-24.385 59.692zM622.923 638.347c0.003-1.59 0.573-3.117 1.616-4.308l73.154-73.23c1.219-1.195 2.91-1.837 4.616-1.846 1.716 0 3.389 0.647 4.615 1.846l172.921 172.923 7.538 5.923c8.121 4.893 17.849 6.731 27.388 4.999 12.721-2.317 23.513-10.759 28.845-22.538 26.396-58.347 34.399-123.382 22.922-186.385-11.485-62.997-41.874-121.027-87.15-166.308-45.284-45.28-103.315-75.668-166.311-87.154-53.877-9.816-109.225-5.303-160.615 12.693l-299.231-299.232c-25.665-25.663-60.472-40.078-96.769-40.078-36.293 0.008-71.107 14.415-96.769 40.078-25.658 25.663-40.077 60.479-40.077 96.768 0.003 36.297 14.414 71.105 40.077 96.771l299.231 299.231c-17.985 51.376-22.503 106.676-12.692 160.538 11.481 63.011 41.941 121.019 87.231 166.308s103.298 75.75 166.308 87.231c63.003 11.474 128.040 3.479 186.385-22.923 11.77-5.333 20.144-16.134 22.459-28.846 2.316-12.716-1.709-25.781-10.847-34.923l-173.229-173.231c-1.037-1.192-1.616-2.72-1.616-4.308z" />
<glyph unicode="&#xe930;" glyph-name="metadata" d="M503.643 910.238c8.24 1.941 16.985 1.002 24.714-2.857l426.713-213.357c12.376-6.2 20.217-18.873 20.217-32.715-0.007-13.839-7.841-26.521-20.217-32.714l-426.713-213.286c-10.293-5.143-22.421-5.146-32.714 0l-426.643 213.286c-12.383 6.191-20.205 18.871-20.214 32.714 0 13.849 7.83 26.518 20.214 32.715l426.643 213.357 8 2.857zM167.143 661.381l344.857-172.428 344.854 172.428-344.854 172.428-344.857-172.428zM922.368 267.381c18.059 9.018 40.038 1.702 49.072-16.357 9.019-18.058 1.69-40.036-16.362-49.069l-426.711-213.358c-10.29-5.135-22.428-5.142-32.715 0l-426.643 213.358-6.286 4.001c-13.354 10.503-17.968 29.274-10.071 45.068 7.903 15.805 25.714 23.399 42.143 19l6.929-2.643 410.285-205.144 410.359 205.144zM922.368 480.715c18.059 9.018 40.038 1.702 49.072-16.358 9.019-18.057 1.69-40.034-16.362-49.071l-426.711-213.361c-10.29-5.127-22.428-5.142-32.715 0l-426.643 213.361-6.286 3.999c-13.354 10.508-17.968 29.278-10.071 45.071 7.903 15.805 25.714 23.4 42.143 19l6.929-2.643 410.285-205.143 410.359 205.143z" />
<glyph unicode="&#xe931;" glyph-name="info" d="M960 448c0 247.423-200.576 448-448 448s-448-200.577-448-448c0-247.424 200.577-448 448-448s448 200.576 448 448zM1024 448c0-282.771-229.229-512-512-512s-512 229.229-512 512c0 282.77 229.23 512 512 512s512-229.23 512-512zM480 256v192c0 17.673 14.327 32 32 32s32-14.327 32-32v-192c0-17.67-14.327-32-32-32s-32 14.33-32 32zM512.5 672l6.438-0.625c14.58-2.985 25.562-15.912 25.562-31.375s-10.982-28.39-25.562-31.375l-6.438-0.625h-0.5c-17.673 0-32 14.327-32 32s14.327 32 32 32h0.5z" />
</font>
</defs>
</svg>
